<?xml version="1.0" standalone="no"?>
<!DOCTYPE svg PUBLIC "-//W3C//DTD SVG 1.1//EN" "http://www.w3.org/Graphics/SVG/1.1/DTD/svg11.dtd" >
<svg>
<metadata>
Created by FontForge 20120731 at Thu Oct 16 23:01:44 2014
 By Orthosie Webhosting
  James L. DeVries 1989, 1990, All Rights Reserved.
</metadata>
<defs>
<font id="VarsityRoman" horiz-adv-x="590" >
  <font-face 
    font-family="VarsityRoman"
    font-weight="400"
    font-stretch="normal"
    units-per-em="1000"
    panose-1="2 0 5 6 3 0 0 2 0 4"
    ascent="800"
    descent="-200"
    x-height="626"
    cap-height="783"
    bbox="0 -60 839.083 826"
    underline-thickness="20"
    underline-position="-35"
    unicode-range="U+0020-00F0"
  />
<missing-glyph horiz-adv-x="0" 
 />
    <glyph glyph-name=".notdef" horiz-adv-x="0" 
 />
    <glyph glyph-name=".null" horiz-adv-x="500" 
d="M40 666v-666h420v666h-420zM60 646h380v-626h-380v626z" />
    <glyph glyph-name="nonmarkingreturn" horiz-adv-x="500" 
 />
    <glyph glyph-name="space" unicode=" " horiz-adv-x="500" 
 />
    <glyph glyph-name="space" unicode="&#xa0;" horiz-adv-x="500" 
 />
    <glyph glyph-name="exclam" unicode="!" horiz-adv-x="350" 
d="M0 0h314v783h-314v-783zM40 38v706h234v-706h-234zM78 77h157v157h-157v-157zM78 274h157l1 431h-158v-431z" />
    <glyph glyph-name="quotedbl" unicode="&#x22;" horiz-adv-x="475" 
d="M431 823h-431v-288q0 -28 10.5 -54t28.5 -45.5t43 -31.5t55 -12q44 2 79 35q37 -36 78 -36q21 0 45.5 12t44.5 32.5t33.5 46.5t13.5 53v288zM39 783h352v-248q0 -21 -7.5 -40t-21 -33.5t-31 -23t-37.5 -8.5q-50 0 -78 40q-28 -40 -79 -40q-21 0 -38.5 8.5t-31 23
t-21 33.5t-7.5 40v248zM78 744v-209q0 -26 17 -46t42 -20t42 20t17 46v209h-118zM235 744v-209q0 -26 17 -46t42 -20t42 20t17 46v209h-118z" />
    <glyph glyph-name="numbersign" unicode="#" horiz-adv-x="630" 
d="M0 274h78v-79h432v79h78v431h-78v78h-432v-78h-78v-431zM39 313v353h79v78h352v-78h78v-353h-78v-79h-352v79h-79zM79 352h77v-78h119v78h38v-78h119v78h78v118h-78v39h78v118h-78v78h-119v-78h-38v78h-119v-78h-78v-118h78v-39h-77v-118zM275 470v39h38v-39h-38z" />
    <glyph glyph-name="dollar" unicode="$" horiz-adv-x="585" 
d="M117 -40h315v70l117 115l-1 274l-38 40v285h-78v78h-315v-69l-117 -117v-276l38 -35v-287h79v-78zM157 -1v78h-78v236h29l-70 68l1 236l87 88h31v78h234v-78h79v-235h-28l67 -69v-237l-85 -87h-33v-78h-234zM195 117v-79h158v79h48l70 69v195l-91 89h-144v39h196v157h-79
v78h-158v-78h-48l-69 -71v-194l87 -88h148v-39h-196v-157h78z" />
    <glyph glyph-name="percent" unicode="%" horiz-adv-x="795" 
d="M78 0h275v26l29 32l58 -58h177l128 127v176l-129 127h-47v23l98 190v140h-276v-28l-27 -31l-62 59h-174l-128 -128v-174l125 -129h51v-25l-98 -190v-137zM118 38v101l117 227v25h-90l-106 108v138l109 107h134l82 -78h28v26l20 26v26h215v-102l-118 -230v-21h89l107 -106
v-141l-107 -106h-138l-79 79h-19l-38 -79h-206zM156 77h126l307 606v22h-127l-306 -610v-18zM165 435h100l85 90v95l-85 85h-96l-91 -90v-95zM391 167l90 -90h96l90 88v99l-90 88h-95l-91 -91v-94zM196 548v39h39v-39h-39zM510 195v39h38v-39h-38z" />
    <glyph glyph-name="ampersand" unicode="&#x26;" horiz-adv-x="625" 
d="M126 0h255l129 127v68h78v275h-78v185l-128 128h-254l-128 -129v-527zM39 145v490l106 109h218l107 -106v-208h78v-196h-78v-88l-106 -108h-216zM78 615v-153l39 -40v-22l-39 -40v-192l91 -91h171l92 89v108h78v117h-186l-49 -48v-109h-39v109l58 60v18l-58 57v70h38v-68
l49 -50h109v186l-91 89h-174z" />
    <glyph glyph-name="quotesingle" unicode="'" horiz-adv-x="320" 
d="M275 823h-275v-288q0 -29 10.5 -55t29 -45.5t43.5 -31t54 -11.5q28 0 53 11.5t44 31.5t30 45.5t11 54.5v288zM39 783h196v-249q0 -20 -7.5 -39t-21 -33.5t-31 -23t-38.5 -8.5t-38.5 8.5t-31 23t-21 33.5t-7.5 40v248zM78 744v-209q0 -26 17 -46t42 -20t42 20t17 46v209
h-118z" />
    <glyph glyph-name="parenleft" unicode="(" horiz-adv-x="425" 
d="M127 -40h265v187l-78 78v333l78 80v188h-264l-128 -133v-605zM39 107v569l107 108h206v-128l-77 -76v-375l77 -79v-126h-204zM78 128l88 -90h148v68l-79 81l1 413l78 75v69h-148l-88 -91v-525z" />
    <glyph glyph-name="parenright" unicode=")" horiz-adv-x="425" 
d="M266 -40l126 126v605l-127 133h-265v-188l79 -80v-333l-79 -78v-185h266zM353 105l-108 -105h-206v124l79 79v375l-79 76v128h208l106 -108v-569zM314 126v525l-87 93h-148v-69l78 -77v-413l-78 -81v-66h148z" />
    <glyph glyph-name="asterisk" unicode="*" horiz-adv-x="705" 
d="M0 274h60l-41 -39l178 -176l137 137l138 -138l177 176l-38 40h56v274h-40l41 40l-197 176l-138 -138l-136 138l-177 -176l34 -39h-54v-275zM157 313h-118v196h118l-80 79l119 117l137 -139l139 140l116 -119l-77 -78h116v-196h-116l78 -80l-117 -117l-138 136l-139 -137
l-117 120zM78 352h178l-119 -117l61 -63l135 140l138 -137l59 60l-119 117h178v118h-177l118 115l-60 60l-137 -136l-137 138l-59 -60l117 -117h-176v-118z" />
    <glyph glyph-name="plus" unicode="+" horiz-adv-x="625" 
d="M156 117h276v157h156v274h-156v157h-276v-157h-156v-274h156v-157zM196 156v157h-157v196h157v157h195v-157h157v-196h-157v-157h-195zM235 195h118v157h157v118h-157v157h-118v-157h-157v-118h157v-157z" />
    <glyph glyph-name="comma" unicode="," horiz-adv-x="320" 
d="M0 246v-296h145l130 99v197h-275zM39 -10v217h196v-148l-90 -69h-106zM78 167v-137h67l52 40v97h-119z" />
    <glyph glyph-name="hyphen" unicode="-" horiz-adv-x="595" 
d="M0 234h549v314h-549v-314zM39 274v235h471v-235h-471zM78 313l382 2v155h-382v-157z" />
    <glyph glyph-name="period" unicode="." horiz-adv-x="360" 
d="M0 0h314v313h-314v-313zM40 38v236h234v-236h-234zM78 77h158v157h-158v-157z" />
    <glyph glyph-name="slash" unicode="/" horiz-adv-x="615" 
d="M0 0h245l324 643v140h-244l-325 -643v-140zM39 38v103l303 603h187v-101l-302 -605h-188zM78 77h108l305 609v19h-108l-305 -607v-21z" />
    <glyph glyph-name="zero" unicode="0" horiz-adv-x="595" 
d="M0 127l126 -127h296l127 126l-1 530l-128 127h-292l-128 -128v-528zM39 145v490l107 109h256l107 -108v-491l-106 -107h-257zM78 165l89 -88h214l90 88v450l-90 90h-212l-90 -90zM236 416v132h57v-25zM255 234v23l58 111v-134h-58z" />
    <glyph glyph-name="one" unicode="1" horiz-adv-x="400" 
d="M38 0h315v783h-226l-127 -129v-224h38v-430zM79 38v432h-40v165l107 109h167v-706h-234zM117 77h158v628h-108l-89 -91v-105h39v-432z" />
    <glyph glyph-name="two" unicode="2" horiz-adv-x="630" 
d="M0 0h588v313h-109l109 108v234l-129 128h-332l-127 -128v-264h128l-128 -128v-263zM39 38v207l186 185h-186v207l108 107h293l108 -106v-201l-163 -163h163v-236h-509zM78 77h432v157h-226l226 227v154l-90 90h-250l-92 -90v-145h158l-1 80h110l8 -51l-275 -277v-145z
" />
    <glyph glyph-name="three" unicode="3" 
d="M0 352v-224l126 -128h295l128 127v238l-29 25l29 31v234l-129 128h-292l-128 -129v-224h156v-78h-156zM39 470v166l108 108h254l108 -107v-199l-46 -46l46 -52v-194l-105 -108h-258l-107 107v168h157v157h-157zM78 509h158v39h77v-78h-78v-157h78v-79h-77v40h-158v-106
l91 -91h211l91 89v154l-67 71l67 71v154l-91 89h-212l-90 -90v-106z" />
    <glyph glyph-name="four" unicode="4" horiz-adv-x="630" 
d="M0 195h235v-195h314v195h39l-1 314h-38v274h-264l-285 -288v-300zM39 234v247l263 263h207v-274h39v-236h-39v-196h-234v196h-236zM78 274h235v-197h158v197h39v156h-39v275h-147l-246 -249v-182zM242 430l71 70v-70h-71z" />
    <glyph glyph-name="five" unicode="5" horiz-adv-x="575" 
d="M0 0h384l165 167v252l-47 51h28v313h-530v-783zM39 38v236h216v39h-216v431h450v-235h-86l106 -109v-215l-145 -147h-325zM78 77h263l130 129v175l-130 128h-105v39h215v157h-373v-353h187l40 -40v-37l-40 -41h-187v-157z" />
    <glyph glyph-name="six" unicode="6" 
d="M0 126l125 -126h299l125 128v527l-129 128h-291l-129 -129v-528zM39 145v490l109 109h254l107 -109v-165h-69l69 -70v-256l-106 -106h-256zM78 166l90 -89h214l89 89v215l-90 89h-145v78h77v-39h158v107l-91 89h-212l-90 -88v-451zM236 234v79h77v-79h-77z" />
    <glyph glyph-name="seven" unicode="7" horiz-adv-x="630" 
d="M38 0h285l265 525v258h-588v-313h206l-168 -335v-135zM79 38v101l185 370h-226l1 235h509v-219l-244 -487h-225zM111 77h154l245 490v138h-432v-157h267z" />
    <glyph glyph-name="eight" unicode="8" 
d="M128 0h293l128 126v254l-30 30l30 30v215l-129 128h-292l-128 -128v-215l28 -30l-28 -30v-253zM147 38l-108 108v234l30 30l-30 30v194l105 110h257l108 -108v-196l-29 -30l29 -30v-236l-106 -106h-256zM78 166l89 -89h214l90 89v194l-49 50l49 51v153l-89 91h-215
l-89 -89v-154l48 -51l-48 -53v-192zM236 234v79h77v-79h-77zM235 470v78h78v-78h-78z" />
    <glyph glyph-name="nine" unicode="9" 
d="M0 128l128 -128h294l127 127v528l-128 128h-292l-129 -127v-275l20 -18l-20 -18v-217zM148 38l-109 107v168h66l-66 69v256l108 106h255l107 -106v-492l-108 -108h-253zM78 274v-109l91 -88h213l89 88v452l-91 88h-210l-92 -90v-214l91 -88h144v-79h-77v40h-158zM236 470
v78h77v-78h-77z" />
    <glyph glyph-name="colon" unicode=":" horiz-adv-x="355" 
d="M0 342v-215l50 -50h217l47 52v213l-52 49h-212zM0 695v-215l50 -50h217l47 52v213l-52 49h-212zM39 145v179l27 28h181l27 -31v-176l-28 -28h-179zM39 498v179l27 28h181l27 -31v-176l-28 -28h-179zM78 156h158v157h-158v-157zM78 509h158v157h-158v-157z" />
    <glyph glyph-name="semicolon" unicode=";" horiz-adv-x="355" 
d="M0 342v-382h147l167 169v213l-52 49h-212zM0 695v-215l50 -50h217l47 52v213l-52 49h-212zM39 -1v325l27 28h181l27 -31v-176l-144 -146h-91zM39 498v179l27 28h181l27 -31v-176l-28 -28h-179zM78 38h29l129 129v146h-158v-275zM78 509h158v157h-158v-157z" />
    <glyph glyph-name="less" unicode="&#x3c;" horiz-adv-x="555" 
d="M510 38v246l-127 126l127 127v246h-226l-284 -285v-175l287 -285h223zM470 77h-164l-267 265v137l265 265h166v-188l-146 -146l146 -146v-187zM432 117v124l-167 169l167 168v127h-107l-247 -247v-96l246 -245h108z" />
    <glyph glyph-name="equal" unicode="=" 
d="M0 117h549v588h-549v-588zM39 156v235h470v-235h-470zM39 430v236h470v-236h-470zM78 195h393v157h-393v-157zM78 470h393v157h-393v-157z" />
    <glyph glyph-name="greater" unicode="&#x3e;" horiz-adv-x="555" 
d="M0 39h223l287 285v175l-284 285h-226v-246l127 -127l-127 -126v-246zM40 78v187l146 146l-146 146v188h166l265 -265v-137l-267 -265h-164zM78 118h108l246 245v96l-247 247h-107v-127l167 -168l-167 -169v-124z" />
    <glyph glyph-name="question" unicode="?" 
d="M117 0h315v263l117 118v275l-128 127h-293l-128 -129v-263h117v-391zM157 38v342l47 50h-165v206l107 108h255l108 -108v-236l-118 -120v-242h-234zM195 77h158v157h-158v-157zM195 273l158 1v28l118 120l-1 196l-94 87h-206l-92 -90v-145h158v78h77v-70l-118 -118v-87z
" />
    <glyph glyph-name="at" unicode="@" horiz-adv-x="475" 
d="M265 117l37 39h-154l-109 106v256l107 109h245v-326l-38 -36v322h-187l-88 -90v-213l89 -89h81l16 27l19 -27h59l89 89l-1 382h-303l-127 -129v-292l129 -128h136zM196 313v157h38v-157h-38z" />
    <glyph glyph-name="A" unicode="A" horiz-adv-x="600" 
d="M0 0h548v656l-126 127h-294l-128 -127v-656zM38 38v599l108 107h256l107 -106v-599zM78 77h157v197h78v-197h157v540l-91 88h-211l-90 -88v-540zM235 430v118h78v-118h-78z" />
    <glyph glyph-name="B" unicode="B" 
d="M0 0h422l127 126v256l-29 28l29 30v215l-128 128h-421v-783zM39 38v706h362l108 -106v-198l-26 -30l26 -30v-235l-106 -107h-364zM78 77h302l91 89v175l-68 69l68 70v137l-91 88h-302v-628zM236 234v79h77v-79h-77zM236 470v78h77v-78h-77z" />
    <glyph glyph-name="C" unicode="C" 
d="M128 0h294l127 127v528l-128 128h-292l-129 -129v-526zM148 38l-109 107v491l105 108h258l107 -107v-492l-106 -107h-255zM78 166l88 -89h215l90 88v226h-158v-157h-77v314h77v-118h158v186l-90 89h-213l-90 -89v-450z" />
    <glyph glyph-name="D" unicode="D" 
d="M0 0h422l127 127v527l-130 129h-419v-783zM39 38v706h362l108 -107v-492l-107 -107h-363zM78 77h302l91 89v449l-91 90h-302v-628zM236 234v314h77v-314h-77z" />
    <glyph glyph-name="E" unicode="E" horiz-adv-x="555" 
d="M0 0h510v352h-39v78h39v353h-510v-783zM39 38v706h431v-274h-39v-157h39v-275h-431zM78 77h354v197h-196v39h157v157h-157v39h196v196h-354v-628z" />
    <glyph glyph-name="F" unicode="F" horiz-adv-x="515" 
d="M0 0h314v234h118l-1 196h40l-1 353h-470v-783zM40 38v706h391v-274h-39v-196h-118v-236h-234zM78 77h158v236h118v157h-118v39h157v196h-315v-628z" />
    <glyph glyph-name="G" unicode="G" 
d="M125 0h296l128 127v528l-128 128h-293l-128 -128v-527zM146 38l-107 108v489l108 109h254l108 -105v-495l-106 -106h-257zM78 167l89 -90h213l91 88v305h-197v-157h39v-79h-77v314h77v-39h158v107l-90 89h-214l-89 -90v-448z" />
    <glyph glyph-name="H" unicode="H" horiz-adv-x="620" 
d="M0 0h588v783h-588v-783zM39 38v706h235v-235h40v235h234v-706h-234v236h-40v-236h-235zM78 77h158v236h116v-236h158v628h-158v-235h-116v235h-158v-628z" />
    <glyph glyph-name="I" unicode="I" horiz-adv-x="355" 
d="M0 0h314v783h-314v-783zM40 38v706h234v-706h-234zM78 77h158v628h-158v-628z" />
    <glyph glyph-name="J" unicode="J" horiz-adv-x="555" 
d="M0 430v-303l128 -127h255l127 125v658h-315v-353h-195zM39 391h197v353h234v-599l-106 -107h-216l-109 108v245zM78 352v-186l90 -89h175l89 90v538h-158v-471h-38v118h-158z" />
    <glyph glyph-name="K" unicode="K" 
d="M0 0h549v384l-29 26l29 28v345h-549v-783zM39 38v706h470v-285l-45 -49l45 -48v-324h-470zM78 77h158v285l77 -78v-207h158v265l-69 68l69 71v224h-158v-168l-77 -77v245h-158v-628z" />
    <glyph glyph-name="L" unicode="L" horiz-adv-x="515" 
d="M0 0h471v313h-157v470h-314v-783zM40 38v706h234v-470h157v-236h-391zM78 77h315v157h-157v471h-158v-628z" />
    <glyph glyph-name="M" unicode="M" horiz-adv-x="630" 
d="M0 0h588v783h-264l-29 -28l-30 28h-265v-783zM39 38v706h206l50 -47l49 47h204v-706h-234v373h-40v-373h-235zM78 77h158v422l59 -59l57 59v-422h158v628h-145l-70 -69l-70 69h-147v-628z" />
    <glyph glyph-name="N" unicode="N" 
d="M0 0h294v61l27 -61h228v783h-314v-59l-29 59h-206v-783zM39 38v706h149l87 -175v175h234v-706h-166l-69 136v-136h-235zM78 77h158v253l128 -253h107v628h-158v-296l-146 296h-89v-628z" />
    <glyph glyph-name="O" unicode="O" 
d="M0 127l128 -127h294l127 125v530l-127 128h-294l-128 -128v-528zM39 145v491l108 108h255l107 -109v-492l-107 -105h-255zM78 166l91 -89h211l91 88v450l-91 90h-212l-90 -90v-449zM236 234v314h77v-314h-77z" />
    <glyph glyph-name="P" unicode="P" 
d="M0 0h314v234h106l129 128v293l-128 128h-421v-783zM39 38v706h363l107 -108v-256l-105 -106h-130v-236h-235zM78 77h158v236h139l96 89v213l-90 90h-303v-628zM236 470v78h77v-78h-77z" />
    <glyph glyph-name="Q" unicode="Q" horiz-adv-x="650" 
d="M0 127l129 -127h193l62 -60h58l166 168v57l-58 61v428l-129 129h-291l-130 -128v-528zM39 145v491l108 108h256l106 -111v-427l59 -60v-21l-155 -156l-71 69h-195zM78 166l87 -89h197l50 -47l98 98v17l-39 42v428l-91 90h-213l-89 -89v-450zM236 222v326h77v-246z" />
    <glyph glyph-name="R" unicode="R" 
d="M0 0h549v345l-31 25l31 33v251l-127 129h-422v-783zM39 38v706h364l106 -107v-219l-49 -48l49 -46v-286h-470zM78 77h158v227l77 -80v-147h158v225l-71 68l71 69v178l-90 88h-303v-628zM236 548h77v-78h-77v78z" />
    <glyph glyph-name="S" unicode="S" 
d="M0 128l127 -128h294l128 127v296l-34 27h34v207l-128 126h-292l-129 -129v-292l31 -30h-31v-204zM148 38l-109 108v167h69l-69 66v257l107 108h256l107 -106v-168h-68l68 -70v-256l-106 -106h-255zM78 274v-108l90 -89h213l90 89v214l-90 90h-145v78h77v-39h158v108
l-91 88h-211l-91 -89v-216l90 -87h145v-79h-78v40h-157z" />
    <glyph glyph-name="T" unicode="T" 
d="M117 0h315v470h117v313h-549v-313h117v-470zM157 38v471h-118v235h470v-235h-118v-471h-234zM195 77h158v471h118v157h-393v-157h117v-471z" />
    <glyph glyph-name="U" unicode="U" horiz-adv-x="595" 
d="M0 783v-655l127 -128h293l129 126v657h-549zM39 744h470v-601l-107 -105h-255l-108 108v598zM78 705v-538l90 -90h212l91 88v540h-158v-431h-77v431h-158z" />
    <glyph glyph-name="V" unicode="V" horiz-adv-x="630" 
d="M0 783v-538l246 -245h97l245 244v539h-588zM39 744h235v-392h40v392h234v-481l-224 -225h-59l-226 226v480zM78 705v-420l216 -217l216 216v421h-158v-364l-58 -59l-59 61l1 362h-158z" />
    <glyph glyph-name="W" unicode="W" horiz-adv-x="710" 
d="M0 0h264l69 68l70 -68h264v783h-315v-274h-38v274h-314v-783zM39 38v706h235v-342l58 55l61 -54v341h234v-706h-206l-88 85l-87 -85h-207zM78 77h149l106 109l109 -109h147v628h-158v-402l-97 97l-98 -99v404h-158v-628z" />
    <glyph glyph-name="X" unicode="X" horiz-adv-x="630" 
d="M0 0h588v342l-68 68l68 70v303h-588v-302l66 -71l-66 -71v-339zM39 38v282l85 90l-85 88v246h235v-157h40v157h234v-246l-84 -88l84 -89v-283h-234v196h-40v-196h-235zM79 77h157v170l59 54l57 -55v-169h158v224l-110 109l110 110v185h-158v-130l-57 -55l-59 55v130h-158
v-186l108 -109l-108 -109z" />
    <glyph glyph-name="Y" unicode="Y" 
d="M0 783v-380l117 -119v-284h315v282l117 119v382h-549zM39 744h471v-324l-119 -117v-265h-234v264l-118 118v324zM78 705v-264l117 -116v-248h158v245l118 117v266h-158v-185l-40 -45l-38 45l1 185h-158z" />
    <glyph glyph-name="Z" unicode="Z" horiz-adv-x="555" 
d="M0 0h510v313h-129l129 252v218h-510v-313h128l-128 -251v-219zM39 38v179l146 292h-146v235h431v-179l-145 -291h145v-236h-431zM78 77h354l-1 157h-167l168 331v140h-354v-157h167l-167 -331v-140z" />
    <glyph glyph-name="bracketleft" unicode="[" horiz-adv-x="435" 
d="M0 -40l392 -1v315h-78v235h78v316h-392v-865zM39 -1v786h313v-237h-78v-314h78v-235h-313zM78 38h236v157h-78v392h78v157h-236v-706z" />
    <glyph glyph-name="backslash" unicode="\" horiz-adv-x="615" 
d="M569 0v140l-325 643h-244v-140l324 -643h245zM530 38h-188l-302 605v101h187l303 -603v-103zM491 77v21l-305 607h-108v-19l305 -609h108z" />
    <glyph glyph-name="bracketright" unicode="]" horiz-adv-x="435" 
d="M392 -40v865h-392v-316h78v-235h-78v-315zM353 -1h-313v235h78v314h-78v237h313v-786zM314 38v706h-236v-157h78v-392h-78v-157h236z" />
    <glyph glyph-name="asciicircum" unicode="^" horiz-adv-x="705" 
d="M0 274h266l66 69l71 -69h264v147l-334 331l-333 -333v-145zM39 313v89l294 293l294 -291v-91h-206l-88 87l-87 -87h-207zM78 352h147l108 108l110 -108h146v29l-256 254l-255 -255v-28z" />
    <glyph glyph-name="underscore" unicode="_" horiz-adv-x="780" 
d="M0 -40h784v274h-784v-274zM39 0v195h705v-195h-705zM78 38h628v117h-628v-117z" />
    <glyph glyph-name="a" unicode="a" horiz-adv-x="475" 
d="M0 0h439v525l-101 102h-235l-103 -102v-525zM30 31v479l87 86h205l85 -85v-480h-377zM62 62h126v157h63v-157h125v432l-73 70h-168l-73 -70v-432zM188 344v95h63v-95h-63z" />
    <glyph glyph-name="b" unicode="b" horiz-adv-x="475" 
d="M0 0h338l101 100v205l-23 23l23 24v172l-102 102h-337v-626zM31 30v565h290l86 -85v-158l-20 -24l20 -24v-188l-84 -86h-292zM62 61h242l73 71v141l-54 55l54 56v109l-73 71h-242v-503zM189 187v63h62v-63h-62zM189 376v62h62v-62h-62z" />
    <glyph glyph-name="c" unicode="c" horiz-adv-x="480" 
d="M103 0h235l102 102v422l-103 103h-234l-103 -104v-420zM119 30l-88 86v393l84 86h207l86 -85v-394l-85 -86h-204zM63 133l70 -71h172l72 70v181h-126v-126h-62v252h62v-95h126v149l-72 71h-170l-72 -71v-360z" />
    <glyph glyph-name="d" unicode="d" horiz-adv-x="475" 
d="M0 0h338l101 101v422l-104 103h-335v-626zM31 30v565h290l86 -86v-393l-85 -86h-291zM62 61h242l73 71v360l-73 72h-242v-503zM189 187v251h61v-251h-61z" />
    <glyph glyph-name="e" unicode="e" horiz-adv-x="445" 
d="M0 0h408v281h-31v63h31v282h-408v-626zM31 30v565h345v-219h-31v-126h31v-220h-345zM62 61h283v158h-157v31h126v126h-126v31h157v157h-283v-503z" />
    <glyph glyph-name="f" unicode="f" horiz-adv-x="415" 
d="M0 0h252v187h94l-1 157h32v283h-377v-627zM32 30v565h313v-219h-31v-157h-94v-189h-188zM63 62h126v189h95v125h-95v31h126v157h-252v-502z" />
    <glyph glyph-name="g" unicode="g" horiz-adv-x="475" 
d="M100 0h237l102 102v422l-102 103h-234l-103 -103v-421zM117 30l-86 87v391l87 87h203l86 -84v-396l-84 -85h-206zM62 134l72 -72h170l73 70v244h-158v-125h32v-64h-62v252h62v-32h126v86l-72 71h-171l-72 -72v-358z" />
    <glyph glyph-name="h" unicode="h" horiz-adv-x="510" 
d="M0 0h471v626h-471v-626zM31 30v565h188v-188h32v188h188v-565h-188v189h-32v-189h-188zM62 61h127v189h93v-189h126v503h-126v-188h-93v188h-127v-503z" />
    <glyph glyph-name="i" unicode="i" horiz-adv-x="290" 
d="M0 0h251v626h-251v-626zM32 30v565h187v-565h-187zM62 61h127v503h-127v-503z" />
    <glyph glyph-name="j" unicode="j" horiz-adv-x="445" 
d="M0 344v-243l103 -101h204l101 100v526h-252v-282h-156zM31 313h158v282h187v-479l-85 -86h-172l-88 87v196zM63 281v-148l72 -72h140l71 72v431h-127v-377h-30v94h-126z" />
    <glyph glyph-name="k" unicode="k" horiz-adv-x="475" 
d="M0 0h439v308l-23 20l23 23v276h-439v-627zM31 31v565h376v-228l-36 -40l36 -38v-259h-376zM62 62h127v228l61 -63v-165h127v212l-56 54l56 57v179h-127v-134l-61 -62v196h-127v-502z" />
    <glyph glyph-name="l" unicode="l" horiz-adv-x="415" 
d="M0 0h377v250h-126v376h-251v-626zM32 30v565h187v-376h126v-189h-313zM62 61h253v126h-126v377h-127v-503z" />
    <glyph glyph-name="m" unicode="m" horiz-adv-x="510" 
d="M0 0h471v626h-212l-23 -22l-24 22h-212v-626zM31 30v565h165l40 -37l39 37h164v-565h-188v299h-32v-299h-188zM63 61h126v338l47 -47l46 47v-338h126v503h-116l-56 -55l-56 55h-117v-503z" />
    <glyph glyph-name="n" unicode="n" horiz-adv-x="475" 
d="M0 0h235v49l22 -49h182v627h-251v-48l-24 48h-164v-627zM31 30v565h119l70 -140v140h187v-565h-133l-55 109v-109h-188zM62 62h126v202l103 -202h86v502h-127v-237l-117 237h-71v-502z" />
    <glyph glyph-name="o" unicode="o" horiz-adv-x="480" 
d="M0 102l103 -102h235l102 100v425l-102 102h-235l-103 -102v-423zM31 116v393l87 87h204l86 -88v-393l-86 -84h-204zM63 133l72 -71h169l73 70v360l-73 73h-169l-72 -73v-359zM189 188v251h62v-251h-62z" />
    <glyph glyph-name="p" unicode="p" horiz-adv-x="475" 
d="M0 0h251v187h85l103 102v235l-102 102h-337v-626zM31 30v565h290l86 -86v-205l-84 -85h-104v-189h-188zM62 61h126v189h112l77 71v171l-72 72h-243v-503zM188 376v62h62v-62h-62z" />
    <glyph glyph-name="q" unicode="q" horiz-adv-x="525" 
d="M0 101l103 -101h155l50 -48h46l133 134v46l-47 49v342l-103 103h-233l-104 -102v-423zM31 116v393l87 86h205l85 -89v-341l47 -48v-17l-124 -125l-57 55h-156zM63 133l69 -72h158l40 -37l78 78v14l-31 33v343l-73 72h-170l-71 -71v-360zM189 178v260h62v-196z" />
    <glyph glyph-name="r" unicode="r" horiz-adv-x="475" 
d="M0 0h439v276l-25 20l25 27v201l-102 103h-337v-627zM31 31v565h291l85 -86v-175l-39 -39l39 -36v-229h-376zM62 62h127v182l61 -64v-118h127v180l-57 54l57 56v142l-72 71h-243v-503zM189 439h61v-63h-61v63z" />
    <glyph glyph-name="s" unicode="s" horiz-adv-x="480" 
d="M0 102l102 -102h235l103 101v237l-28 22h28v165l-103 101h-234l-103 -103v-234l25 -24h-25v-163zM119 30l-88 86v134h56l-56 53v206l86 86h205l86 -85v-134h-55l55 -56v-205l-85 -85h-204zM63 219v-87l72 -71h170l72 71v172l-72 72h-116v62h62v-31h126v86l-73 71h-169
l-72 -71v-173l72 -70h116v-63h-63v32h-125z" />
    <glyph glyph-name="t" unicode="t" horiz-adv-x="480" 
d="M94 0h252v376h94v251h-440v-251h94v-376zM126 31v377h-95v188h377v-188h-95v-377h-187zM156 62h127v377h94v126h-314v-126h93v-377z" />
    <glyph glyph-name="u" unicode="u" horiz-adv-x="480" 
d="M0 626v-524l102 -102h234l104 101v525h-440zM31 595h377v-481l-86 -84h-204l-87 87v478zM63 564v-431l72 -72h169l73 71v432h-126v-345h-62v345h-126z" />
    <glyph glyph-name="v" unicode="v" horiz-adv-x="510" 
d="M0 627v-431l197 -196h77l197 195v432h-471zM31 595h188v-313h32v313h188v-384l-180 -181h-47l-181 181v384zM62 564v-336l173 -174l173 173v337h-126v-291l-47 -47l-47 49v289h-126z" />
    <glyph glyph-name="w" unicode="w" horiz-adv-x="570" 
d="M0 0h211l56 54l56 -54h211v626h-252v-219h-31v219h-251v-626zM31 30v565h188v-274l47 44l49 -43v273h187v-565h-165l-70 68l-70 -68h-166zM62 61h120l85 88l87 -88h117v503h-126v-322l-78 78l-78 -79v323h-127v-503z" />
    <glyph glyph-name="x" unicode="x" horiz-adv-x="510" 
d="M0 0h471v273l-55 55l55 56v242h-471v-241l53 -57l-53 -57v-271zM31 30v226l68 72l-68 70v197h188v-125h32v125h188v-197l-68 -70l68 -71v-227h-188v157h-32v-157h-188zM62 61h127v136l47 44l46 -44v-136h126v180l-88 87l88 88v148h-126v-104l-46 -44l-47 44v104h-127
v-149l87 -87l-87 -87v-180z" />
    <glyph glyph-name="y" unicode="y" horiz-adv-x="480" 
d="M0 626v-304l94 -95v-227h252v225l94 96v305h-440zM31 595h377v-259l-95 -94v-212h-187v211l-95 95v259zM63 564v-211l93 -93v-199h127v196l94 94v213h-126v-148l-32 -36l-31 36l1 148h-126z" />
    <glyph glyph-name="z" unicode="z" horiz-adv-x="445" 
d="M0 0h408v250h-103l103 202v174h-408v-250h103l-103 -201v-175zM31 30v143l117 234h-117v188h345v-143l-116 -233h116v-189h-345zM63 61h283l-1 126h-134l135 265v112h-283v-126h133l-133 -265v-112z" />
    <glyph glyph-name="cent" unicode="&#xa2;" horiz-adv-x="595" 
d="M156 38h315v79h78v588h-78v78h-315v-49l-156 -164v-324l128 -129h28v-79zM196 77v79h-49l-108 106v295l108 109h49v78h235v-78h78v-236h-78v-39h78v-235h-78v-79h-235zM235 117h157v78h79v157h-79v118h79v157h-79v78h-157v-78h-67l-90 -88v-256l90 -88h67v-78zM235 350
q-39 15 -39 61q0 42 39 59v-120z" />
    <glyph glyph-name="yen" unicode="&#xa5;" horiz-adv-x="510" 
d="M0 245l128 -128h218l125 128v254l-127 128h-216l-128 -130v-252zM40 264v217l107 106h179l105 -107v-220l-105 -104h-181zM78 284l88 -89h141l86 91v172l-88 90h-137l-90 -89v-175z" />
    <glyph glyph-name="dieresis" unicode="&#xa8;" horiz-adv-x="550" 
d="M128 117h255l127 127v371l-127 129h-255l-128 -129v-371zM147 156l-108 107v333l106 109h219l106 -107v-337l-106 -105h-217zM236 195v157h38v-157h69l89 89v98l-40 38l40 40v118l-91 88h-174l-89 -89v-293l88 -89h70zM236 470v78h38v-78h-38z" />
    <glyph glyph-name="copyright" unicode="&#xa9;" horiz-adv-x="550" 
d="M0 244l128 -127h254l128 128v371l-128 128h-254l-128 -129v-371zM39 264v331l108 110h217l106 -105v-338l-105 -106h-218zM78 283l91 -88h174l89 89v146h-158v-117h-38v235h38v-78h158v107l-89 89h-175l-90 -91v-292z" />
    <glyph glyph-name="ordfeminine" unicode="&#xaa;" horiz-adv-x="785" 
d="M0 430h78v-117h667v392h-185l-31 -30l-29 30h-500v-275zM39 470v196h441l49 -47l49 47h127v-314h-156v20h-40v-20h-156v118h-40v-118h-195v118h-79zM78 509h78v-118h119v118h78v118h-275v-118zM391 391h99v71l39 -44l39 44v-71h99v236h-67l-71 -68l-69 68h-69v-236z" />
    <glyph glyph-name="Ograve" unicode="&#xd2;" horiz-adv-x="620" 
d="M589 392v265l-40 42v126h-148l-128 -128v-305h316zM0 392h314v264l-40 41v127h-149l-125 -128v-304zM314 678l105 108h90v-108l39 -37v-210h-234v247zM39 431v246l104 108h90v-108l40 -37v-209h-234zM510 472v127l-39 38v109h-29l-90 -89l1 -185h157zM77 471h158l-1 127
l-39 38v109h-29l-89 -89v-185z" />
    <glyph glyph-name="Oacute" unicode="&#xd3;" horiz-adv-x="620" 
d="M316 824h-315v-265l40 -42v-126h148l127 128v305zM592 824h-316v-264l40 -42v-126h149l127 128v304zM276 784v-246l-105 -108h-90v108l-39 37v209h234zM552 785v-246l-105 -108h-90v108l-41 37v209h236zM238 744h-158v-127l39 -38v-109h29l90 89v185zM514 745h-158v-127
l39 -38v-109h29l90 89v185z" />
    <glyph glyph-name="Ocircumflex" unicode="&#xd4;" horiz-adv-x="540" 
d="M113 391h314v264l-40 42v126h-148l-127 -128zM153 430l-1 246l105 108h90v-108l39 -37l1 -209h-234zM191 470h158l-1 127l-39 38v109h-29l-90 -89z" />
    <glyph glyph-name="Otilde" unicode="&#xd5;" horiz-adv-x="540" 
d="M431 823h-314l-1 -264l40 -42v-126h148l127 128v304zM391 784v-246l-105 -108h-90v108l-39 37v209h234zM353 744h-158v-127l39 -38v-109h29l90 89v185z" />
    <glyph glyph-name="Odieresis" unicode="&#xd6;" horiz-adv-x="710" 
d="M0 234h156v-145l90 -89h174l90 88v146h157v314h-157v146l-90 89h-173l-91 -92v-143h-156v-314zM39 274v235h184q-27 37 -27 101q0 27 11 51.5t30 43t44 29t52 10.5t52 -10.5t43.5 -29t30 -43t11.5 -51.5q0 -34 -5 -56t-20 -44l182 -1v-235h-185q16 -22 22.5 -44.5
t6.5 -54.5q0 -27 -11.5 -52t-30.5 -43.5t-43 -30t-49 -11.5q-28 0 -53.5 11t-45 29.5t-31 43.5t-11.5 53q0 58 30 99h-187zM78 313h511l-9 157h-502v-157zM334 509q20 0 37.5 8t31 22t21.5 32t8 39q0 19 -7.5 36.5t-21 30.5t-31 20.5t-37.5 7.5q-42 -1 -70.5 -28t-29.5 -67
q0 -21 7.5 -39.5t21 -32t31.5 -21.5t39 -8zM338 77q18 0 35 8t30 21.5t20.5 31t7.5 37.5t-8 38t-21.5 31.5t-30.5 21.5t-35 8q-21 0 -39 -7.5t-32 -21t-22 -31.5t-8 -39t8.5 -38.5t22.5 -31t32.5 -21t39.5 -7.5z" />
    <glyph glyph-name="eth" unicode="&#xf0;" horiz-adv-x="880" 
d="M502 584q-10 0 -10 10q0 5 5 6.5t11 5.5q7 6 27 18q19 13 30 22.5t22 24.5q23 31 32 61t9 76q-17 3 -31 3q-80 0 -126 -69q-27 -41 -27 -84q0 -4 0.5 -11.5t1.5 -18.5q0 -4 2 -12t2 -14q-2 -20 -10 -20l-20 8q-51 21 -72 27q-20 7 -55 7q-46 0 -90 -21t-78.5 -57
t-56 -84.5t-21.5 -102.5q1 -37 14 -78t34.5 -80.5t49 -76t56.5 -63.5t58 -42.5t53 -14.5q18 1 35.5 9t35 17t35 17t35.5 9q22 0 40.5 -6.5t42.5 -19.5q24 -12 40.5 -18.5t38.5 -7.5q19 -1 43 8.5t49.5 26.5t49.5 40.5t42.5 51t29.5 58.5t10 62q-17 -6 -35 -6q-20 0 -39 7
t-34 19t-25 28.5t-12 36.5q0 52 28.5 86.5t73.5 35.5q-5 33 -19 61t-34.5 49t-47.5 33t-59 12q-23 0 -38 -4q-15 -3 -38.5 -10t-41.5 -11zM572 681q-20 -29 -42.5 -45.5t-55.5 -27.5q-11 30 -11 53q0 36 23 71q39 57 125 57q-2 -32 -11 -56.5t-28 -51.5zM673 336
q5 -49 42.5 -80t95.5 -31q-1 -38 -23 -74t-53 -64.5t-65.5 -45t-60.5 -15.5q-21 1 -37.5 8t-39.5 20q-22 13 -39.5 19.5t-39.5 6.5q-18 -1 -33.5 -8.5t-31.5 -17t-32 -17t-34 -8.5q-23 -1 -50 13.5t-54.5 39.5t-53.5 58.5t-46.5 70.5t-33.5 74.5t-14 70.5q-2 49 18.5 94
t53.5 80t74 55.5t82 19.5q24 0 43 -5t46 -15t45.5 -14.5t41.5 -4.5q21 0 36 3.5t38 9.5q23 7 41.5 11.5t38.5 4.5q55 0 88.5 -33t55.5 -91q-45 -8 -72 -44.5t-27 -90.5zM482 629q49 23 78 64q27 39 35 83q-51 -3 -84 -42q-31 -35 -31 -80q0 -8 0.5 -14t1.5 -11zM761 194
q-52 14 -83.5 51t-36.5 91q0 115 85 158q-16 22 -29 36t-23 22q-19 16 -68 16q-14 -1 -31 -4t-38 -10q-41 -12 -68 -12q-19 0 -33.5 4t-38.5 13q-23 9 -39 13.5t-36 4.5q-36 1 -73 -17t-66 -48.5t-47 -70.5t-16 -83q3 -59 39 -130q38 -71 88 -117q52 -47 92 -47
q15 1 29.5 7.5t28.5 14.5t28 14.5t30 7.5q18 0 33.5 -5.5t36.5 -16.5t33.5 -16t30.5 -6q51 0 101 37q51 37 71 93z" />
    <glyph glyph-name="glyph104" horiz-adv-x="500" 
 />
  </font>
</defs>
</svg>
